#TITLE:3254 Techno Party;
#SUBTITLE:;
#ARTIST:Audition;
#TITLETRANSLIT:;
#SUBTITLETRANSLIT:;
#ARTISTTRANSLIT:;
#CREDIT:;
#BANNER:;
#BACKGROUND:;
#LYRICSPATH:;
#CDTITLE:;
#MUSIC:3254 Techno Party.ogg;
#OFFSET:0.220;
#SAMPLESTART:74.040;
#SAMPLELENGTH:11.940;
#SELECTABLE:YES;
#DISPLAYBPM:142.000;
#BPMS:0.000=142.000,40.000=284.000,44.000=142.000,72.000=284.000,76.000=142.000,172.000=146.500,176.000=142.000,304.000=135.500,305.000=142.000;
#STOPS:40.000=0.220
,41.000=0.180
,42.000=0.120
,42.500=0.120
,43.000=0.120
,43.500=0.100
,72.000=0.220
,73.000=0.180
,74.000=0.120
,74.500=0.120
,75.000=0.100
,75.500=0.100
;
#BGCHANGES:;
// cache tags:
#FIRSTBEAT:11.833;
#LASTBEAT:336.000;
#SONGFILENAME:Songs/Super Dancer Online mania/3254 Techno Party 3/3254 Techno Party.sm;
#HASMUSIC:1;
#HASBANNER:0;
#MUSICLENGTH:145.022;
// end cache tags

//---------------techno-single8 - ----------------
#NOTES:
     techno-single8:
     :
     Hard:
     3:
     0.540,0.695,0.000,0.000,0.248,548.000,0.000,0.000,80.000,0.000:
00000000
00000000
00000000
00000000
,
00000000
00000000
00000000
00000000
,
00000000
00000000
00000000
00000000
00000000
00000000
00000000
00000000
00000000
00000000
00000000
00000000
00000000
00000000
00000000
00000000
00000000
00000000
00000000
00000000
00000000
00000000
00000000
M000000M
,
00000000
00000100
00001000
00000000
00010000
00001000
00010000
00000000
,
00100000
00000000
00000000
00001000
00000000
00000000
00010000
00000000
00000000
00000000
00000000
00000000
00000100
00000000
00000000
01000000
00000000
00000000
00100000
00000000
00000000
00000000
00000000
M000000M
,
00000000
00001000
00010000
00000000
00000100
00010000
00001000
00000000
,
01000000
00000000
00000000
00000010
00000000
00000000
00000100
00000000
00000000
00000000
00000000
00000000
01000000
00000000
00000000
00100000
00000000
00000000
00100000
00000000
00000000
00100000
00000000
M000000M
,
00000000
00000010
00000100
00000000
00100000
00001000
00010000
00000000
,
01000000
00000000
00000000
00010000
00000000
00000000
00000100
00000000
00000000
00000000
00000000
00000000
00010000
00000000
00000000
00100000
00000000
00000000
00000100
00000000
00000000
00000000
00000000
M000000M
,
00000000
01000000
00100000
00000000
00001000
00000010
00000100
00000000
,
00010000
00000000
00000000
00000000
00000000
00000000
00000000
00000000
00010000
00000000
00000000
00000000
00000000
00000000
00000000
00000000
00010000
00000000
00000000
00000000
00010000
00000000
00000000
00000000
00010000
00000000
00000000
00000000
00010000
M000000M
00000000
00000000
,
00000000
00001000
01000000
00000000
00100000
00001000
00010000
00000000
,
00000010
00000000
00000000
00001000
00000000
00000000
00000100
00000000
00000000
00000000
00000000
00000000
01000000
00000000
00000000
01000000
00000000
00000000
00001000
00000000
00000000
00000000
00000000
M000000M
,
00000000
00001000
00100000
00000000
00100000
00000010
00000010
00000000
,
00010000
00000000
00000000
01000000
00000000
00000000
00100000
00000000
00000000
00000000
00000000
00000000
00000100
00000000
00000000
00010000
00000000
00000000
00001000
00000000
00000000
01000000
00000000
M000000M
,
00000000
00001000
00000100
00000000
01000000
00010000
00001000
00000000
,
00000100
00000000
00000000
01000000
00000000
00000000
00010000
00000000
00000000
00000000
00000000
00000000
00001000
00000000
00000000
01000000
00000000
00000000
00000010
00000000
00000000
00001000
00000000
M000000M
,
00000000
01000000
00010000
00000000
01000000
00001000
00010000
00000000
,
00001000
00000000
00000000
00000000
00000000
00000000
00000000
00000000
00001000
00000000
00000000
00000000
00000000
00000000
00000000
00000000
00010000
00000000
00000000
00000000
00010000
00000000
00000000
00000000
00010000
00000000
00000000
00000000
00010000
M000000M
00000000
00000000
,
00000000
01000000
00001000
00000000
00000010
00010000
00001000
00000000
,
01000000
00000000
00000000
00010000
00000000
00000000
00001000
00000000
00000000
00000000
00000000
00000000
01000000
00000000
00000000
00000100
00000000
00000000
00000010
00000000
00000000
00010000
00000000
M000000M
,
00000000
00000100
00010000
00000000
00100000
00001000
00010000
00000000
,
01000000
00000000
00001000
00000000
00010000
00000000
00000000
00000000
01000000
00000000
00010000
00000000
00100000
00000000
00000100
M000000M
,
00000000
00010000
01000000
00000000
00001000
00010000
00001000
00000000
,
01000000
00000000
00000000
00010000
00000000
00000000
01000000
00000000
00000000
00000000
00000000
00000000
00000010
00000000
00000000
00100000
00000000
00000000
01000000
00000000
00000000
00000000
00000000
M000000M
,
00000000
01000000
00001000
00010000
00000010
01000000
00000100
00010000
,
00000010
00000000
00000000
00010000
00000000
00000000
00000100
00000000
00000000
00100000
00000000
00000000
00001000
00000000
00000000
01000000
00000000
00000000
00000100
00000000
00000000
00100000
00000000
00000000
00000010
00000000
00000000
00010000
00000000
00000000
00000100
00000000
00000000
00100000
00000000
00000000
00001000
00000000
00000000
01000000
00000000
00000000
00000100
00000000
00000000
00100000
M000000M
00000000
,
00000000
00001000
00100000
00000010
00000100
00000010
01000000
00001000
,
00100000
00000000
00000000
00010000
00000000
00000000
01000000
00000000
00000000
00001000
00000000
00000000
00010000
00000000
00000000
00000100
00000000
00000000
00000010
00000000
00000000
00000100
00000000
M000000M
,
00000000
01000000
00000100
00010000
00000010
00000100
01000000
00001000
,
00010000
00000000
00000000
00000010
00000000
00000000
00000100
00000000
00000000
01000000
00000000
00000000
00001000
00000000
00000000
00000000
00000000
00000000
00001000
00000000
00000000
00001000
00000000
M000000M
,
00000000
01000000
00000010
00000100
00000010
01000000
00001000
00100000
,
00000100
00000000
00000000
01000000
00000000
00000000
00000010
00000000
00000000
01000000
00000000
00000000
00000010
00000000
00000000
00001000
00000000
00000000
00010000
00000000
00000000
00000100
00000000
M000000M
,
00000000
01000000
00000010
00000100
00001000
01000000
00000100
00001000
,
00100000
00000000
00000000
00000000
00000000
00000000
00100000
00000000
00000000
00000000
00000000
00000000
01000000
00000000
00000000
01000000
00000000
00000000
01000000
00000000
00000000
01000000
00000000
M000000M
,
00000000
00010000
00000010
01000000
00100000
01000000
00000100
00010000
,
00100000
00000000
00000000
00000100
00000000
00000000
00100000
00000000
00000000
00010000
00000000
00000000
00000100
00000000
00000000
00100000
00000000
00000000
01000000
00000000
00000000
00100000
00000000
M000000M
,
00000000
00001000
00100000
00000100
01000000
00100000
00001000
00010000
,
00000100
00000000
00000000
01000000
00000000
00000000
00100000
00000000
00000000
00000010
00000000
00000000
00010000
00000000
00000000
00000000
00000000
00000000
00010000
00000000
00000000
00010000
00000000
M000000M
,
00000000
00000010
00000100
00100000
01000000
00001000
01000000
00000100
,
00100000
00000000
00000000
00001000
00000000
00000000
00010000
00000000
00000000
00000010
00000000
00000000
00010000
00000000
00000000
00000100
00000000
00000000
00100000
00000000
00000000
00001000
00000000
M000000M
,
00000000
00000000
00001000
00000000
01000000
01000000
00000100
00000100
,
00000010
00010000
00000100
00100000
00001000
01000000
00000100
00100000
00000010
00010000
00000100
00100000
00001000
01000000
00000100
00100000
,
00100000
00000000
00000000
00000000
00000000
00000000
00000000
00000000
00000000
00000000
00000000
00000000
00000000
00000000
00000000
00000000
00000000
00000000
00000000
00000000
00000000
00000000
00000000
M000000M
,
00000000
00000100
00001000
01000000
00100000
00010000
00000000
00010000
,
00000000
00000000
00000000
00000010
00000000
00000000
00000100
00000000
00000000
00001000
00000000
00000000
01000000
00000000
00000000
00000100
00000000
00000000
00000000
00000000
00000000
01000000
00000000
M000000M
,
00000000
01000000
00000100
00100000
00000010
00000100
00000000
00010000
,
00100000
00000000
00000000
00000010
00000000
00000000
00001000
00000000
00000000
00000100
00000000
00000000
00100000
00000000
00000000
00010000
00000000
00000000
00001000
00000000
00000000
00000100
00000000
M000000M
,
00000000
01000000
00000100
00001000
00000010
00100000
00000000
00100000
,
00000000
00000000
00000000
00100000
00000000
00000000
00000100
00000000
00000000
00001000
00000000
00000000
01000000
00000000
00000000
00000010
00000000
00000000
00000000
00000000
00000000
00100000
00000000
M000000M
,
00000000
00100000
00010000
01000000
00000010
00001000
00000000
01000000
,
00100000
00000000
00000000
00000100
00000000
00000000
01000000
00000000
00000000
00000100
00000000
00000000
00000010
00000000
00000000
00100000
00000000
00000000
00000100
00000000
00000000
00010000
00000000
M000000M
,
00000000
00010000
00000100
00100000
00001000
00000010
00000000
00000010
,
00000000
00000000
00000000
00000010
00000000
00000000
00000100
00000000
00000000
00100000
00000000
00000000
00001000
00000000
00000000
00010000
00000000
00000000
00000000
00000000
00000000
01000000
00000000
M000000M
,
00000000
01000000
00010000
00001000
00100000
00000010
00000000
00000100
,
00000000
00000000
00000000
00000100
00000000
00000000
01000000
00000000
00000000
00001000
00000000
00000000
00010000
00000000
00000000
00001000
00000000
00000000
01000000
00000000
00000000
00000010
00000000
M000000M
,
00000000
01000000
00000010
00000100
00100000
01000000
00000000
01000000
,
00000000
00000000
00000000
01000000
00000000
00000000
00000010
00000000
00000000
00100000
00000000
00000000
00000100
00000000
00000000
00010000
00000000
00000000
00000000
00000000
00000000
00010000
00000000
M000000M
,
00000000
00000010
01000000
00000100
00000010
00000100
00000000
01000000
,
00000000
00000000
00000000
00001000
00000000
00000000
00010000
00000000
00000000
00000010
00000000
00000000
00000010
00000000
00000000
01000000
00000000
00000000
00001000
00000000
00000000
00010000
00000000
M000000M
,
00000000
00100000
01000000
00001000
00100000
00000100
00000000
00000100
,
00000000
00000000
00000000
00000100
00000000
00000000
00100000
00000000
00000000
00000010
00000000
00000000
00000100
00000000
00000000
00001000
00000000
00000000
00000000
00000000
00000000
00001000
00000000
M000000M
,
00000000
00001000
01000000
00010000
01000000
00001000
00000000
00001000
,
00000000
00000000
00000000
01000000
00000000
00000000
00001000
00000000
00000000
00010000
00000000
00000000
00000010
00000000
00000000
00000100
00000000
00000000
00001000
00000000
00000000
00010000
00000000
M000000M
,
00000000
01000000
00001000
00100000
00010000
00001000
00000000
00010000
,
00000000
00000000
00000000
00100000
00000000
00000000
00000010
00000000
00000000
00000100
00000000
00000000
01000000
00000000
00000000
00001000
00000000
00000000
00000000
00000000
00000000
00100000
00000000
M000000M
,
00000000
00000100
00100000
00001000
00010000
01000000
00000000
01000000
,
00001000
00000000
00000000
00010000
00000000
00000000
00000010
00000000
00000000
01000000
00000000
00000000
00000100
00000000
00000000
00100000
00000000
00000000
00001000
00000000
00000000
00001000
00000000
M000000M
,
00000000
00001000
01000000
00000000
00100000
00001000
00010000
00000000
,
00000010
00000000
00000000
00001000
00000000
00000000
00000100
00000000
00000000
00000000
00000000
00000000
01000000
00000000
00000000
01000000
00000000
00000000
00001000
00000000
00000000
00000000
00000000
M000000M
,
00000000
00001000
00100000
00000000
00100000
00000010
00000010
00000000
,
00010000
00000000
00000000
01000000
00000000
00000000
00100000
00000000
00000000
00000000
00000000
00000000
00000100
00000000
00000000
00010000
00000000
00000000
00001000
00000000
00000000
01000000
00000000
M000000M
,
00000000
00001000
00000100
00000000
01000000
00010000
00001000
00000000
,
00000100
00000000
00000000
01000000
00000000
00000000
00010000
00000000
00000000
00000000
00000000
00000000
00001000
00000000
00000000
01000000
00000000
00000000
00000010
00000000
00000000
00001000
00000000
M000000M
,
00000000
01000000
00010000
00000000
01000000
00001000
00010000
01000000
,
00000010
00000000
00000000
00010000
00000000
00000000
00000100
00000000
00000000
00100000
00000000
00000000
00001000
00000000
00000000
01000000
00000000
00000000
00000100
00000000
00000000
00100000
00000000
00000000
00000010
00000000
00000000
00010000
00000000
00000000
00000100
00000000
00000000
00100000
00000000
00000000
00001000
00000000
00000000
01000000
00000000
00000000
00000100
00000000
00000000
00100000
M000000M
00000000
,
00000000
00001000
00100000
00000010
00000100
00000010
01000000
00001000
,
00100000
00000000
00000000
00010000
00000000
00000000
01000000
00000000
00000000
00001000
00000000
00000000
00010000
00000000
00000000
00000100
00000000
00000000
00000010
00000000
00000000
00000100
00000000
M000000M
,
00000000
01000000
00000100
00010000
00000010
00000100
01000000
00001000
,
00010000
00000000
00000000
00000010
00000000
00000000
00000100
00000000
00000000
01000000
00000000
00000000
00001000
00000000
00000000
00000000
00000000
00000000
00001000
00000000
00000000
00001000
00000000
M000000M
,
00000000
01000000
00000010
00000100
00000010
01000000
00001000
00100000
,
00000100
00000000
00000000
01000000
00000000
00000000
00000010
00000000
00000000
01000000
00000000
00000000
00000010
00000000
00000000
00001000
00000000
00000000
00010000
00000000
00000000
00000100
00000000
M000000M
,
00000000
00000000
00000010
00000000
00001000
00100000
00000100
00001000
,
00000010
00010000
00000100
00100000
00001000
01000000
00000100
00100000
00000010
00010000
00000100
00100000
00001000
01000000
00000100
00100000
,
01000000
00000000
00000000
00000000
;

//---------------techno-single4 - ----------------
#NOTES:
     techno-single4:
     :
     Easy:
     1:
     0.000,0.000,0.000,0.000,0.000,0.000,0.000,0.000,0.000,0.000:
0000
0000
0000
0000
;

//---------------techno-single4 - ----------------
#NOTES:
     techno-single4:
     :
     Medium:
     1:
     0.000,0.000,0.000,0.000,0.000,0.000,0.000,0.000,0.000,0.000:
0000
0000
0000
0000
;
